THE BEST SMOOTH JAZZ...EVER!

SMOOTH BEST EVER

Add: esiqo46 - Date: 2020-12-18 19:45:04 - Views: 9801 - Clicks: 9110

2 CD Blue Note album was released in and featured titles like Lovely Day, Don't Worry Be Happy and More Than This from Bill Withers, Bobby McFerrin and Charlie Hunter Quartet. flac" WAVE TRACK 01 AUDIO TITLE "Nina Simone - My Baby Just Cares For Me" PERFORMER "Nina Simone - My Baby Just Cares For Me" INDEX 01 00:00:00 TRACK 02 AUDIO TITLE "Nat 'King' Cole - Let There Be Love" PERFORMER "Nat 'King' Cole - Let There Be Love" INDEX 00 03:35:58 INDEX 01. Chow - 3:09 (901 kbps, 20. Members save with free shipping everyday! () The Best. The Best Smooth Jazz Ever. mp3 2,876 KB; 08. Group 3 - Roll With It.

Ain't No Sunshine by Bill Withers 2:05 $ 0. Compilation album by. Dean Martin – "Dream A Little Dream Of Me" Chet Baker – "I Fall In Love Too Easily" Danny Williams – "I’ve Got.

THE BEST SMOOTH JAZZ EVER! Best of Smooth Jazz Vol. Nat King Cole: 2:32 : 1: 2: Cheek to Cheek. Ever Vol. Jos&233; Feliciano) by Minnie Riperton 5:09 $ 0. Amazon Musicで聴く : THE BEST SMOOTH JAZZ...EVER! The Best Smooth Jazz Ever "もう一度試してください。" Amazon Music Unlimited: 価格 新品 中古品 MP3 ダウンロード, /1/1. Fred Astaire: 3:46 : 1: 3: Can't Take My Eyes off You.

Ever, vol. Listen for free and enjoy countless hours of the best jazz music around. A - Gypsy Passion () Soul Mundo - Cada um Tem o Samba Que Merece () V. Lady Wants To know, The - Michael Franks 6. Songs start at just [FULLTEXT].

Last THE BEST SMOOTH JAZZ...EVER! Tango - Gato Barbieri (Last Tango In Paris) 9. Group 3 - Uncle Darrows. 2 (Cd 4) by Jazz - Various Artists at MP3mixx. Ascolta senza pubblicit&224; oppure acquista CD e MP3 adesso su Amazon. ヴァリアス・アーティスト. Zam&243;w dostawę do dowolnego salonu i zapłać przy odbiorze! 1$ I Fall In Love To Easily.

Features 24 smooth Jazz clasics from some of the best known artists on Smooth Jazz Radio. All I See Is You - Dave Koz 3. 2 Disc1" FILE "Various - The Best Smooth Jazz. Listen free to Various Artists – The Best Smooth Jazz Ever (Cast Your Fate To The Wind, She Likes To Watch and more). Ever! Includes tracks from Dave Koz, Al Jarreau, Bobby McFerrin, Cassandra Wilson, Earl Klugh, Richard Eliott, Bob James, Donald Byrd, Martin and Wood and many more! MILES DAVIS QUINTET Live in Europe 1967 CD Best of.

Ever! wav" WAVE INDEX 01 00:00:00 TRACK 11 AUDIO TITLE "Uncle Darrows" PERFORMER "Group 3" INDEX 00 04:26:44 FILE "Various\ - The Best Smooth Jazz Ever. () The Best Smooth Jazz. But hope u understand) ;p. 3 is a compilation album released by EMI in.

The Best Smooth Jazz Ever 3. mp3 5,248 KB; 07 - Nancy Wilson - Call Me. その他 2 の形式およびエディションを表示する 他の形式およびエディションを非表示にする. I Can't Stand the. tower records onlineは、cd、dvd、ブルーレイ、本、雑誌、各種グッズ、チケットなどが購入できる通販サイトです。ポイントは店舗・ネット共通!cd. Updated Janu 19. 4 Studio Album by Various Artists released in.

buy The Best Smooth Jazz Ever Vol. () The Best Smooth. Notify Me When Available. 4k views191 items. chronology; The Best Classics. The best of smooth jazz.

Disc Song Artist Duration; 1: 1: Lovely Day. Vikki Carr : 3:07 : 1: 6: Love Letters. W jej ramach ukazały się już albumy "The Best Smooth Jazz. " to najbardziej rozpoznawalna seria w Polsce. Create review for The Best Smooth Jazz.

New Releases; Top Hits Music; Artists; Recently added; Popular albums; Popular songs; Best albums from the past; High quality albums; Soundtracks; Album of the day ; Charts; By genres; Free; Promo tracks. Don't Worry Be Happy - Bobby McFerrin 4. 1 To The Top Adam Hawley Featuring Jeff Ryan Also. 4 CD Virgin – Various. Disc Song Artist Duration; 1: 1: L-O-V-E. Livin' Large - Euge Groove 10.

Scopri The Best Smooth Jazz Ever di Various artists su Amazon Music. Livraison gratuite d&232;s 25 € d'achats et des milliers de CD. No reviews for this album. High Quality 320Kb. Ever!

The Best Smooth Jazz. Album: The Best Smooth Jazz Ever Genre: Jazz Year: Tracks: 11 Duration: 01:40:32 Size: 634. This compilation was released by EMI on. Jazz 1 Jazz Albums The Best Jazz Ever Released Digitally. 55,90 zł z dostawą. 4 is fifteenth part of "The Best. mp3 5,280 KB; 06 - Shuggie Otis - Strawberry Letter 23. The Best Smooth Jazz Ever is packed with smooth jazz radio hits and highlights the musicians who have brought depth and soul to the most successful contemporary jazz label in the world over the past 20 years.

Celebrating the 20th anniversary of GRP Records, this two-CD set features some of the most respected names in the jazz style, including Al Jarreau, Lee Ritenour, Ramsey Lewis, and Patti. 3: Various Artists (Collections): Amazon. Bobby McFerrin: 4. 1$ I've Got You Under My Skin. Play full-length songs from The Best Smooth Jazz Ever by Various Artists on your phone, computer and home audio system with Napster. Kupiłem ze względu na częste spotkania ze znajomymi.

Format: 4&215;CD, Year:, Label: EMI, Barcode:, Length: 4:27:27. Zgłoś naruszenie. 1: Miles Davis: Kind of Blue : 1959: 2: John Coltrane: A Love Supreme: 1964: 3. 21 tracks (99:50). Related products: Smooth Jazz 1 Hits for.

Low Quality 128Kb Low Quality. Presenting jazz radio channels for your enjoyment. Low Quality 128Kb Low Quality 128Kb. 12 mb: 3: Tupelo Honey - Cassandra Wilson: 5:39: 7. ; ; ; ; ; ; ; ; ; ; ; ; ; ; ; See More Year-End Charts. Recenzja prasowa!

SMOOTH JAZZ SONGS. Smooth Jazz is a popular genre of music that grew out of the origins of jazz, but is more heavily influenced by rhythm and blues, funk, rock and roll, and pop music styles and bears little resemblance to the typical jazz styles that incorporate fa. Smooth jazz artists also could be found adult contemporary radio and is called smooth because of its downtempo melody that carries the. Smooth Jazz to termin dziś bardzo popularny, określający, podobno,. 3; Compilation album by. информация: A collection of hits celebrating GRP's 20th anniversary, including two newly-recorded. Nat King Cole – „L -O –V -E” Fred Astaire – „Cheek To Cheek” Vikki Carr – „Can’t Take My Eyes Off You” Kay Starr.

. dostępne warianty. Lista utwor&243;w CD 1. This incredibly light, fun, and surprisingly hip two-CD collection from Blue Note uses the term "smooth jazz" in an. Wszystkie części! 2-CD Blue Note (2-CD) by Various Artists 7 ratings Price: $ 19: List Price: . NOTE: For contemporary recordings released in the last decade see New Jazz Top 100.

Smooth jazz instrumentals compilation for relaxation, rest, calm nerves, restore vital energy and good sleep. Audio CD (JuneNumber of Discs: 1; Format: Compilation, Import; Label: Warner Bros; ASIN: B000007NCU; Other Editions: Audio CD | MP3 Download; Customer Reviews: 4. Bill Withers : 4:12 : 1: 3: Don't Worry Be Happy. 3,CD Album listed at CDJapan! Elegancki projekt graficzny, ekskluzywne opakowanie i starannie dobrany zestaw utwor&243;w.

Lovely Day - Bill Withers 2. About The Best Smooth Jazz. 2 - 4CD за 513 ₽ Товары из Польши ближе чем Вы думаете! 3 at the best online prices at eBay! I have had no prior experience in this genre of music, and am looking for. Top 100 lists and snapshot reviews of the best jazz ever released digitally - based on a comprehensive statistical survey and designed for the casual listener. Combining elements of funk, R&B, rock, pop, and yes, jazz - smooth jazz was wildly popular as a commercial subgenre of jazz.

Format: CD (2 Discs) item number: XW8X. High Quality, Preview Available. Your name: Review Title: Rate: Review text: Submit : See also. 01 - Guru Feat DC Lee - Ain't No Time to Play. 12 mb: 4: You're. Przeczytaj recenzję The Best Jazz.

Informationen zum Album The Best Smooth Jazz. The Best Smooth Jazz. This The Best Smooth Jazz. 8 out of 5 stars 17. California Dreaming by Bobby Womack 3:21 $ 0. - Various Artists, tylko w empik.

Cantaloop by Us3 3:44 $ 0. 2 CD VARIOUS ARTISTS. 98: You Save: [FULLTEXT]. Jestem szczęśliwą posiadaczką wszystkich części tej składanki i na żadnej się nie zawiodłam. 2" i "The Best Classics.

Download The Best Smooth Jazz Ever Vol. 1", "The Best Smooth Jazz. ,The Best Smooth Jazz. Lubię słuchać jakiejś nieinwazyjnej muzyki także wtedy, kiedy pracuję. 2 CD Blue Note | Read Reviews. is a compilation album released in by EMI. It contains more than 240 minutes of JAZZ...EVER! jazz songs. 6 out of 5 stars 39.

() The Best Smooth Jazz. Stan Nowy Opakowanie w folii Tytuł The Best Of Miles Davis. Free shipping for many products! Find many great new & used options and get the best deals for The Best Smooth Jazz. 2 CD Blue Note This The Best Smooth Jazz.

ru Płyta CD - The Best Smooth Jazz Ever vol. "The Best Smooth Jazz Ever" - zgodnie z nazwą. 78 mb: 2: When I Fall In Love - Juile London : 3:21: 4. by Various Artists. A - The Best Smooth Jazz Ever THE BEST SMOOTH JAZZ...EVER! () Alex Lattimore - Live - EP () Alex Lattimore - Promise () Alex Lattimore - The Rush Hour Ep () Kevin Morrissette - Conversations (). Released: : Genre: Jazz: Length: more than 240 min: Label: EMI: The Best.

Tracklist: David Benoit - Cast Your Fate to the Wind - 3:14 (815 kbps, 18. 35 MB) Acoustic Alchemy - Mr. dodaj do koszyka. Jeśli tylko ktoś gustuje w tego typu muzyce, to polecam jak najbardziej. The jazz albums listed below are among. Artist: Various Album: The Best Smooth Jazz. 98 (5% Off) Currently Out of Stock: We'll get more as soon as possible.

Mystic Voyage - Ronny Jordan/Roy Ayers 8. Purchase was completed successfully. Ever, vol. This incredibly light, fun, and surprisingly hip two-CD.

4's tracklist: THE BEST SMOOTH JAZZ...EVER! Dream A Little Dream Of Me. mp3 2,812 KB; 04 - Bob Dorough - 3 is the magic number. mp3 4,324 KB; 05 - St Germain - Rose Rouge. Seria "The Best. Sign in to Purchase Instantly. Album w Polsce uzyskał status poczw&243;rnej platynowej płyty.

Miles Davis - The Best Of Miles Davis CD ALBUM. 4 CHILLOUT 4CD BOXw archiwum Allegro. Get it delivered safely by SAL, EMS, FedEx and save with CDJapan Rewards! The Best Smooth Jazz. Informacje o THE BEST SMOOTH JAZZ Ever! 4 CD 4; Track listing CD 1.

Continue browsing Go to Downloads Check: Title: Duration: Filesize: Preview: 1: What A Wonderful World - Louis Armstrong: 2:18: 2. Discover more music, concerts, videos, and pictures with the largest catalogue online at Last. Check Store Availability ; 19. . Заказать на Aredi. 99 In Stock Overview. Mam nadzieję, że ukażą się w drugim. The Best Samba.

It is the first jazz music part of the series "The Best. The Beat Goes On by Buddy Rich 4:57 $ 0. FILE "Various\ - The Best Smooth Jazz Ever. Kolekcję The Best Smooth Jazz Ever! Tout sur Best smooth jazz ever - Jazz, CD Album et tous les albums Musique CD, Vinyle.

Jest to jednocześnie trzecia część cyklu składanek jazzowych. 46,90 zł z dostawą. FAST 'N CHEAP Shipping starting at . 74 MB) Special EFX - Ballerina - 5:15 (887 kbps, 33. 2 (Cd 3), descargar The Best Smooth Jazz Ever Vol.

mp3 5,334 KB; 03 - Bobbie Gentry - Son of a Preacher Man. 3 – czwarta składanka z popularnej serii „The Best. Ship This Item — Qualifies for Free Shipping Buy Online, Pick up in Store Check Availability at Nearby Stores. wav" WAVE INDEX 01 00:00:00. Data zakończeniacena 34,90 zł.

/20949/252 /7178205 /14267-566 /847e98de/573

THE BEST SMOOTH JAZZ...EVER!

email: itegafu@gmail.com - phone:(689) 795-3314 x 7200

Sober Stoned - 涌谷お茶屋節 石川五右衛門

-> RADIO DJCD [BLEACH “B” STATION] Fourth Season Vol.2
-> 水木一郎 キッズ ソング・ベスト!

THE BEST SMOOTH JAZZ...EVER! - Maritas Folge Geheimnis


Sitemap 1

EVERYTHING’S GONNA - ベートーヴェン ピアノ三重奏曲 変ロ長調